Plaire, aimer et courir vite FRENCH BluRay 720p 2018 | watch I Still See You 2018 movie online openload | Persona 5 the Animation
 


 

Filecrypt zeigt vereinzelt Files als "n/a". Die Downloads sind trotzdem komplett.

DNS SERVER AENDERNum der staatlichen Zensur zu umgehen. Sollten wir von eurem Provider geseprrt werden, nutzt den TOR BROWSER oder ändert euren DNS SERVER.

Filmwünsche können bei uns im Forum abgegeben werden

Wir Speichern Nicht




 
 
 
Top Releases
Final.Take-Off.Einsame.Entsc...
Passengers.2016.German.AC3.D...
Wolfsnaechte.2018.German.AC3...
Brawl.in.Cell.Block.99.2017....
Gravity.Diamond.Luxe.Edition...
Middle.School.The.Worst.Year...
Brawl.in.Cell.Block.99.2017....
Mindhorn.2016.German.AC3.DL....
Die.letzte.Party.deines.Lebe...
Sand.Castle.2017.German.AC3....

Cinedubs
Bad.Spies.2018.German.AC3MD....
Bad.Spies.2018.German.AC3MD....
MEG.Biss.bald.2018.German.AC...
Slender.Man.2018.GERMAN.DL.A...
Slender.Man.2018.GERMAN.DL.A...
MEG.Biss.bald.2018.German.AC...
MEG.Biss.bald.2018.German.AC...
Searching.2018.German.AC3MD....
Searching.2018.German.AC3MD....
211.Cops.Under.Fire.2018.Ger...

Neuerscheinungen 2017-18
The.Big.Lebowski.1998.MULTi....
The.Fast.And.The.Furious.Tok...
2.Fast.2.Furious.2003.MULTi....
The.Watcher.Willkommen.im.Mo...
Vielmachglas.2018.German.AC3...
The.First.Purge.2018.German....
Am.Anfang.war.das.Feuer.La.g...
Uncle.Drew.2018.German.AC3.D...
Uncle.Drew.2018.German.AC3.D...
Wildes.Herz.2017.MULTi.COMPL...

XXX
BrownBunnies.18.10.05.Demi.S...
MistressT.18.01.02.Virgin.Hu...
ImmoralLive.18.10.04.Georgie...
Spizoo.18.10.01.Krissy.Lynn....
ExxxtraSmall.18.10.04.Demi.S...
Nubiles.18.10.02.Cristin.Bro...
POVLife.18.10.01.Addison.Lee...
MistressT.17.09.01.Sissy.Tra...
HerLimit.18.10.05.Ashley.Woo...
ATKGirlfriends.18.10.03.Arie...
HornyDoctor.18.10.05.Aria.Ro...
SweetheartVideo.18.10.01.Abi...
Cum4K.18.10.02.Mia.Collins.C...
PrivateSociety.18.10.02.Gang...
GermanGooGirls.18.10.02.Dais...
HarmonyVision.18.10.04.Lady....
Pantyhosed4U.18.10.03.Amber....
FamilyStrokes.18.10.04.Esper...
GapeLand.18.10.02.Lilit.Swee...
WankItNow.17.11.16.Kellie.Ob...

3D
Detective.Dee.und.die.Legend...
Detective.Dee.und.die.Legend...
Skyscraper.3D.German.DL.AC3....
Ant-Man.and.the.Wasp.2018.3D...
Jurassic.World.Das.gefallene...
Jurassic.World.Das.gefallene...
Best.of.3D.vol.10.-.12.GERMA...
Die.Biene.Maja.2.Die.Honigsp...
Sharknado.6.The.Last.One.3D....
Solo.A.Star.Wars.Story.3D.20...
Solo.A.Star.Wars.Story.3D.20...
Die.Biene.Maja.2.Die.Honigsp...
Avengers.Infinity.War.3D.201...
Avengers.Infinity.War.3D.201...
Rampage.Big.Meets.Bigger.3D....

Old_Stuff
Species.IV.Das.Erwachen.2007...
Species.IV.Das.Erwachen.2007...
Hotel.Transsilvanien.2012.Ge...
The.Dead.2010.German.DL.1080...
The.Dead.2.India.2013.German...
Britney.Spears.Live.The.Femm...
Buffy.The.Vampire.Slayer.199...
IMAX.Ride.Around.The.World.2...
Schimanski.-.Duisburg.Ruhror...
Akte.X.S02.German.DTS.DL.108...
How.I.Met.Your.Mother.S02.Ge...
Akte.X.S01.German.DTS.DL.108...
Den.Himmel.gibts.echt.DL.108...
Vikings.S02.German.DL.1080p....
Be.Kind.Rewind.Abgedreht.200...

Filme
Die.letzte.Front.Defenders.o...
The.Blacklist.S05D01-6.MULTi...
Der.Schakal.1997.German.DTS....
Tetsuo.The.Iron.Man.1989.Ger...
Ein.Platz.im.Herzen.1984.Ger...
The.Blacklist.S05.COMPLETE.G...
Hawaii.2013.German.DL.2160p....
Supernatural.S13.DL.DD51.Dub...
Elevator.2011.German.DL.1080...
Supernatural.S13.DL.DD51.Dub...
Mr.Mercedes.S02.German.DD+51...
Mr.Mercedes.S02.German.DD+51...
Hoechster.Einsatz.in.Laredo....
The.Fast.and.the.Furious.200...
Rhapsodie.in.Blei.1985.1080p...
Loewengrube.1989.S01.S02.S03...
The.Asian.Connection.2016.GE...
Fantastic.Four.2015.German.D...
Tsotsi.2005.German.DL.1080p....
Knowing.2009.German.Dubbed.D...
Sherlock.Holmes.Spiel.im.Sch...
Excalibur.1981.COMPLETE.BLUR...
The.Originals.S05.GERMAN.720...
The.Magicians.S03.GERMAN.720...

 
 
The.Outpost.S01.GERMAN.720p.HDTV.x264-ACED

Jahr: 2018
Genre: Action | Fantasy
Sprache: Deutsch AC3
Laufzeit: 40min je Folge
Bitrate: 2900 Kbps
Format: MKV
Größe: 1 GB je Folge
Release:

Beschreibung:

In der Fantasy-Abenteuer-Serie „The Outpost“ steht die Heldin Talon (Jessica Green) im Zentrum. Sie ist die einzige Überlebende ihres Stammes mit dem Namen „Blackbloods“. Mehrere Jahre nachdem ihr Dorf von Söldnern zerstört wurde, sucht sie die Mörder ihrer Familie in einer Festung am Rande der Zivilisation. Auf dem Weg dorthin entdeckt sie, dass sie eine mysteriöse Fähigkeit besitzt, die es zu beherrschen gilt, um sich selbst und die Welt vor fanatischen religiösen Herrschern zu retten.


enthaltene Folgen:

The.Outpost.S01E01.GERMAN.720p.HDTV.x264-ACED

The.Outpost.S01E02.GERMAN.720p.HDTV.x264-ACED

The.Outpost.S01E03.GERMAN.720p.HDTV.x264-ACED

The.Outpost.S01E04.GERMAN.720p.HDTV.x264-ACED

The.Outpost.S01E05.GERMAN.720p.HDTV.x264-ACED

The.Outpost.S01E06.GERMAN.720p.HDTV.x264-ACED NEU



General
Complete name                            : The.Outpost.S01E01.GERMAN.720p.HDTV.x264-ACED\The.Outpost.S01E01.GERMAN.720p.HDTV.x264-ACED.mkv
Format                                   : Matroska
Format version                           : Version 2
File size                                : 988 MiB
Duration                                 : 40mn 39s
Overall bit rate                         : 3 395 Kbps
Encoded date                             : UTC 2018-09-22 13:34:44
Writing application                      : mkvmerge v26.0.0 ('In The Game') 64-bit
Writing library                          : libebml v1.3.6 + libmatroska v1.4.9
DURATION                                 : 00:40:39.936000000
NUMBER_OF_FRAMES                         : 76248
NUMBER_OF_BYTES                          : 117116928
_STATISTICS_WRITING_APP                  : mkvmerge v26.0.0 ('In The Game') 64-bit
_STATISTICS_WRITING_DATE_UTC             : 2018-09-22 13:34:44
_STATISTICS_TAGS                         : BPS DURATION NUMBER_OF_FRAMES NUMBER_OF_BYTES

Video
ID                                       : 1
Format                                   : AVC
Format/Info                              : Advanced Video Codec
Format profile                           : [email protected]
Format settings, CABAC                   : Yes
Format settings, ReFrames                : 5 frames
Codec ID                                 : V_MPEG4/ISO/AVC
Duration                                 : 40mn 39s
Bit rate                                 : 2 944 Kbps
Width                                    : 1 280 pixels
Height                                   : 720 pixels
Display aspect ratio                     : 16:9
Frame rate mode                          : Constant
Frame rate                               : 25.000 fps
Color space                              : YUV
Chroma subsampling                       : 4:2:0
Bit depth                                : 8 bits
Scan type                                : Progressive
Bits/(Pixel*Frame)                       : 0.128
Stream size                              : 856 MiB (87%)
Writing library                          : x264 core 155 r2901 7d0ff22
Encoding settings                        : cabac=1 / ref=5 / deblock=1:-3:-3 / analyse=0x3:0x113 / me=umh / subme=9 / psy=1 / psy_rd=1.00:0.00 / mixed_ref=1 / me_range=16 / chroma_me=1 / trellis=2 / 8x8dct=1 / cqm=0 / deadzone=21,11 / fast_pskip=0 / chroma_qp_offset=-2 / threads=12 / lookahead_threads=1 / sliced_threads=0 / nr=0 / decimate=1 / interlaced=0 / bluray_compat=0 / constrained_intra=0 / bframes=3 / b_pyramid=2 / b_adapt=2 / b_bias=0 / direct=3 / weightb=1 / open_gop=0 / weightp=2 / keyint=250 / keyint_min=25 / scenecut=40 / intra_refresh=0 / rc_lookahead=50 / rc=crf / mbtree=1 / crf=18.0 / qcomp=0.60 / qpmin=0 / qpmax=69 / qpstep=4 / ip_ratio=1.40 / aq=1:1.00
Default                                  : Yes
Forced                                   : No

Audio
ID                                       : 2
Format                                   : AC-3
Format/Info                              : Audio Coding 3
Mode extension                           : CM (complete main)
Format settings, Endianness              : Big
Codec ID                                 : A_AC3
Duration                                 : 40mn 39s
Bit rate mode                            : Constant
Bit rate                                 : 384 Kbps
Channel(s)                               : 6 channels
Channel positions                        : Front: L C R, Side: L R, LFE
Sampling rate                            : 48.0 KHz
Bit depth                                : 16 bits
Compression mode                         : Lossy
Stream size                              : 112 MiB (11%)
Language                                 : German
Default                                  : Yes
Forced                                   : No



Download:
Share-Online.biz Share-Online.bizShare-Online.bizShare-Online.biz | Rapidgator.net Rapidgator.netRapidgator.netRapidgator.net
 

Kommentare