Teen Wolf - Season 3 | William Lo | Star Trek Into Darkness 2013 ...
 


 

Filecrypt zeigt vereinzelt Files als "n/a". Die Downloads sind trotzdem komplett.

DNS SERVER AENDERNum der staatlichen Zensur zu umgehen. Sollten wir von eurem Provider geseprrt werden, nutzt den TOR BROWSER oder ändert euren DNS SERVER.

Filmwünsche können bei uns im Forum abgegeben werden

Wir Speichern Nicht




 
 
 
Top Releases
Mindhorn.2016.German.AC3.DL....
Die.letzte.Party.deines.Lebe...
Sand.Castle.2017.German.AC3....
Skyscraper.2018.German.DL.AC...
Brawl.in.Cell.Block.99.2017....
Brawl.in.Cell.Block.99.2017....
The.Night.Comes.for.Us.2018....
Jurassic.World.2015.German.A...
Transit.2018.German.AC3.1080...
Hereditary.Das.Vermaechtnis....

Cinedubs
Bad.Spies.2018.German.AC3MD....
Bad.Spies.2018.German.AC3MD....
MEG.Biss.bald.2018.German.AC...
Slender.Man.2018.GERMAN.DL.A...
Slender.Man.2018.GERMAN.DL.A...
MEG.Biss.bald.2018.German.AC...
MEG.Biss.bald.2018.German.AC...
Searching.2018.German.AC3MD....
Searching.2018.German.AC3MD....
211.Cops.Under.Fire.2018.Ger...

Neuerscheinungen 2017-18
Das.ist.erst.der.Anfang.Miss...
Sandy.Wexler.2017.German.AC3...
Illang.The.Wolf.Brigade.2018...
Illang.The.Wolf.Brigade.2018...
Tales.from.the.Hood.2.2018.G...
Tales.from.the.Hood.2.2018.M...
Abschussfahrt.2015.German.AC...
Point.Break.2015.German.DL.D...
Der.Himmel.ueber.Berlin.1987...
Tales.from.the.Hood.2.2018.G...

XXX
EvilAngel.Anal.Investigation...
Sexxxotica.11.XXX.720p.WEBRi...
ImmoralLive.18.10.02.Nikki.F...
SweetheartVideo.Talk.Derby.T...
DPFanatics.18.10.05.Ginebra....
DevilsFilm.18.10.04.Victoria...
BrothaLovers.18.09.30.Kate.E...
FTVGirls.18.10.04.Vanna.And....
EvilAngel.Anal.Slut.Diaries....
MistressT.18.04.08.Atone.For...
Nubiles.18.10.03.Jynx.Correr...
SexAndSubmission.18.10.05.Lo...
X-Art.18.09.28.Izzy.Hot.Russ...
CumPerfection.18.10.04.Sapph...
TeenFidelity.E338.Eden.Sin.M...
MistressT.17.09.08.Gloved.Cr...
MistressT.18.03.08.Kinky.Cuc...
MistressT.18.05.03.Vampire.S...
LadyVoyeurs.18.10.03.Saskia....
BangBus.18.10.03.Angelica.Cr...

3D
Detective.Dee.und.die.Legend...
Detective.Dee.und.die.Legend...
Skyscraper.3D.German.DL.AC3....
Ant-Man.and.the.Wasp.2018.3D...
Jurassic.World.Das.gefallene...
Jurassic.World.Das.gefallene...
Best.of.3D.vol.10.-.12.GERMA...
Die.Biene.Maja.2.Die.Honigsp...
Sharknado.6.The.Last.One.3D....
Solo.A.Star.Wars.Story.3D.20...
Solo.A.Star.Wars.Story.3D.20...
Die.Biene.Maja.2.Die.Honigsp...
Avengers.Infinity.War.3D.201...
Avengers.Infinity.War.3D.201...
Rampage.Big.Meets.Bigger.3D....

Old_Stuff
Species.IV.Das.Erwachen.2007...
Species.IV.Das.Erwachen.2007...
Hotel.Transsilvanien.2012.Ge...
The.Dead.2010.German.DL.1080...
The.Dead.2.India.2013.German...
Britney.Spears.Live.The.Femm...
Buffy.The.Vampire.Slayer.199...
IMAX.Ride.Around.The.World.2...
Schimanski.-.Duisburg.Ruhror...
Akte.X.S02.German.DTS.DL.108...
How.I.Met.Your.Mother.S02.Ge...
Akte.X.S01.German.DTS.DL.108...
Den.Himmel.gibts.echt.DL.108...
Vikings.S02.German.DL.1080p....
Be.Kind.Rewind.Abgedreht.200...

Filme
Eine.auswaertige.Affaere.194...
Eine.andere.Frau.1988.German...
Eine.Lady.fuer.den.Gangster....
Ein.Tag.zum.Kaempfen.1967.Ge...
Ein.Teufelskerl.1981.German....
Ein.Tick.anders.2011.German....
Ein.verhaengnisvoller.Sommer...
Ein.Versprechen.Reise.in.die...
Ein.wahres.Verbrechen.1999.G...
Tanz.der.Teufel.1981.German....
Ein.toedlicher.Traum.1980.Ge...
Halloween.Resurrection.Delux...
Die.Kraniche.ziehen.1957.Ger...
The.Frighteners.1996.German....
8.Blickwinkel.2008.German.AC...
Gangster.No1.2000.German.DD5...
Barbaras.Baby.Omen.III.The.F...
Die.Legende.von.den.acht.Sam...
7.Tage.in.Entebbe.2018.Germa...
MotoGP.Moto2.Moto3.Saison.20...
Sieben.Leben.2008.German.AC3...
MotoGP.Moto2.Moto3.Saison.20...
Formel.1.Saison.2018.GERMAN....
Weissensee.S04.COMPLETE.Germ...

 
 
Molly.2017.1080p.BluRay.x264-GHOULS

Jahr: 2017
Genre: Action, Sci-Fi
Sprache: Englisch AC3
Laufzeit: 1h 34mn
Bitrate: 9 904 Kbps
Format: MKV
Größe: 6.56 GiB
Release:

Beschreibung:
In einer postapokalyptischen Welt, in der Munition zur Währung und Medizin rar geworden ist, benutzt ein Clan von Plünderer eine selbst gemachte Droge dazu, unschuldige Menschen in blutrünstige Monster zu verwandeln, die sie anschließend in Arenen gegeneinander kämpfen lassen. Als der Anführer der Bande Gerüchte von einem Mädchen mit Superkräften hört, das angeblich an einem nahegelegen Strand umherstreifen soll, schickt er seine besten Männer um sie zu fangen. Währenddessen entdeckt dieses begabte Mädchen, das den Namen Molly trägt, ein Kleinkind, das allein in einer Hütte im Wasteland lebt und dort auf die Rückkehr seiner wahrscheinlich verstorbenen Eltern wartet. Als die Plünderer-Bande anrückt, muss Molly das Kind mit allen Mitteln beschützen...


Complete name                            : m-y.2017.1080p.bluray.x264-ghouls.mkv
Format                                   : Matroska
Format version                           : Version 4 / Version 2
File size                                : 6.56 GiB
Duration                                 : 1h 34mn
Overall bit rate                         : 9 904 Kbps
Encoded date                             : UTC 2018-10-06 21:29:31
Writing application                      : mkvmerge v27.0.0 ('Metropolis') 64-bit
Writing library                          : libebml v1.3.6 + libmatroska v1.4.9
DURATION                                 : 01:34:47.904000000
NUMBER_OF_FRAMES                         : 177747
NUMBER_OF_BYTES                          : 318522624
_STATISTICS_WRITING_APP                  : mkvmerge v27.0.0 ('Metropolis') 64-bit
_STATISTICS_WRITING_DATE_UTC             : 2018-10-06 21:29:31
_STATISTICS_TAGS                         : BPS DURATION NUMBER_OF_FRAMES NUMBER_OF_BYTES

Video
ID                                       : 1
Format                                   : AVC
Format/Info                              : Advanced Video Codec
Format profile                           : [email protected]
Format settings, CABAC                   : Yes
Format settings, ReFrames                : 4 frames
Codec ID                                 : V_MPEG4/ISO/AVC
Duration                                 : 1h 34mn
Bit rate                                 : 9 455 Kbps
Width                                    : 1 920 pixels
Height                                   : 1 040 pixels
Display aspect ratio                     : 1.85:1
Frame rate mode                          : Constant
Frame rate                               : 23.976 fps
Color space                              : YUV
Chroma subsampling                       : 4:2:0
Bit depth                                : 8 bits
Scan type                                : Progressive
Bits/(Pixel*Frame)                       : 0.197
Stream size                              : 6.13 GiB (93%)
Writing library                          : x264 core 157 r2932 303c484
Encoding settings                        : cabac=1 / ref=4 / deblock=1:-3:-3 / analyse=0x3:0x133 / me=umh / subme=9 / psy=1 / psy_rd=1.00:0.00 / mixed_ref=1 / me_range=24 / chroma_me=1 / trellis=1 / 8x8dct=1 / cqm=0 / deadzone=21,11 / fast_pskip=0 / chroma_qp_offset=-2 / threads=24 / lookahead_threads=4 / sliced_threads=0 / nr=0 / decimate=1 / interlaced=0 / bluray_compat=0 / constrained_intra=0 / bframes=8 / b_pyramid=2 / b_adapt=2 / b_bias=0 / direct=3 / weightb=1 / open_gop=0 / weightp=2 / keyint=250 / keyint_min=23 / scenecut=40 / intra_refresh=0 / rc_lookahead=60 / rc=2pass / mbtree=1 / bitrate=9455 / ratetol=1.0 / qcomp=0.60 / qpmin=0 / qpmax=69 / qpstep=4 / cplxblur=20.0 / qblur=0.5 / vbv_maxrate=62500 / vbv_bufsize=78125 / nal_hrd=none / filler=0 / ip_ratio=1.40 / aq=1:1.00
Default                                  : Yes
Forced                                   : No

Audio
ID                                       : 2
Format                                   : AC-3
Format/Info                              : Audio Coding 3
Mode extension                           : CM (complete main)
Format settings, Endianness              : Big
Codec ID                                 : A_AC3
Duration                                 : 1h 34mn
Bit rate mode                            : Constant
Bit rate                                 : 448 Kbps
Channel(s)                               : 6 channels
Channel positions                        : Front: L C R, Side: L R, LFE
Sampling rate                            : 48.0 KHz
Bit depth                                : 16 bits
Compression mode                         : Lossy
Stream size                              : 304 MiB (5%)
Language                                 : English
Default                                  : Yes
Forced                                   : No


Download:
Share Online Share OnlineShare OnlineShare Online
 

Kommentare